7am Arivu ( 2011) - Tamil Movie - Five Star Dvdrip.xvid - Esubs.torrent

Informations

Bookmark this torrent
Seeds2
Peers57
Size707.84 MB
Age2 years ago
DateFriday 18 November 2011
Comments1
CategoryMovies > Misc > verified Verified
Hash11a20b9e26a323a480080aa3235ba1cd3092b9f5
Reported Fake (0) Password (0) Bad quality (0) Virus (0) Offensive (0) Spam (0) Real Torrent (0)
Bookmark

Comments

1 Comments


us candymann1 2 years ago (Moderator)


7am Arivu ( 2011) - Tamil movie - Five Star DVDRip - ESubs -
Format : AVI
Format/Info : Audio Video Interleave
File size : 708 MiB
Duration : 2h 38mn
Overall bit rate : 624 Kbps

Video
ID : 0
Format : MPEG-4 Visual
Format profile : Advanced Simple@L5
Format settings, BVOP : 2
Format settings, QPel : Yes
Format settings, GMC : No warppoints
Format settings, Matrix : Default (H.263)
Codec ID : XVID
Codec ID/Hint : XviD
Duration : 2h 38mn
Bit rate : 553 Kbps
Width : 608 pixels
Height : 288 pixels
Display aspect ratio : 2.2:1
Frame rate : 25.000 fps
Color space : YUV
Chroma subsampling : 4:2:0
Bit depth : 8 bits
Scan type : Progressive
Compression mode : Lossy
Bits/(Pixel*Frame) : 0.126
Stream size : 628 MiB (89%)

Audio
ID : 1
Format : MPEG Audio
Format version : Version 2
Format profile : Layer 3
Mode : Joint stereo
Mode extension : MS Stereo
Codec ID : 55
Codec ID/Hint : MP3
Duration : 2h 38mn
Bit rate mode : Constant
Bit rate : 64.0 Kbps
Channel(s) : 2 channels
Sampling rate : 24.0 KHz
Compression mode : Lossy
Stream size : 72.7 MiB (10%)
Sign in | Create a new account

Files

Torrent nameSize
video 7am Arivu ( 2011) - Tamil movie - Five Star DVDRip - ESubs - Moviejockey.com.avi707.84 MB

Trackers

TrackerSeedsPeers
http://www.moviejockey.com:2710/00002fdb6fe96209f3d29e2cec100ebf/announce 2 years ago257
http://tracker.thepiratebay.org/announce 2 years ago00

Share this torrent