Harry.potter.and.the.deathly.hallows.2.2011.bdrip.xvid.ac3.hq.hi.torrent

Informations

Bookmark this torrent
Seeds50
Peers10
Size2 GB
Age2 years ago
DateFriday 28 October 2011
Comments1
CategoryMovies > Misc > verified Verified
Hash0315dc12ef850e4723532f2621b03ec3466a48b0
Reported Fake (0) Password (0) Bad quality (0) Virus (0) Offensive (0) Spam (0) Real Torrent (0)
Bookmark

Comments

1 Comments


us Anubarack 2 years ago (Moderator)


General
Complete name : Harry.Potter.And.The.Deathly.Hallows.2.2011.BDRip.XVID.AC3.HQ.Hive-CM8.avi
Format : AVI
Format/Info : Audio Video Interleave
Format profile : OpenDML
Format settings : rec
File size : 1.99 GiB
Duration : 2h 10mn
Overall bit rate : 2 189 Kbps
Writing application : AVI-Mux GUI 1.17.7, Aug 8 2006 20:59:17

Video
ID : 0
Format : MPEG-4 Visual
Format profile : Advanced Simple@L5
Format settings, BVOP : 2
Format settings, QPel : Yes
Format settings, GMC : No warppoints
Format settings, Matrix : Default (H.263)
Muxing mode : Packed bitstream
Codec ID : XVID
Codec ID/Hint : XviD
Duration : 2h 10mn
Bit rate : 1 800 Kbps
Width : 720 pixels
Height : 304 pixels
Display aspect ratio : 2.35:1
Frame rate : 23.976 fps
Color space : YUV
Chroma subsampling : 4:2:0
Bit depth : 8 bits
Scan type : Progressive
Compression mode : Lossy
Bits/(Pixel*Frame) : 0.343
Stream size : 1.64 GiB (82%)
Writing library : XviD 1.2.1 (UTC 2008-12-04)

Audio
ID : 1
Format : AC-3
Format/Info : Audio Coding 3
Mode extension : CM (complete main)
Codec ID : 2000
Duration : 2h 10mn
Bit rate mode : Constant
Bit rate : 384 Kbps
Channel(s) : 6 channels
Channel positions : Front: L C R, Side: L R, LFE
Sampling rate : 48.0 KHz
Bit depth : 16 bits
Compression mode : Lossy
Stream size : 358 MiB (18%)
Alignment : Aligned on interleaves
Interleave, duration : 64 ms (1.53 video frames)
Interleave, preload duration : 192 ms


Plot:

The final chapter begins as Harry, Ron, and Hermione continue their quest of finding and destroying the Dark Lord's three remaining Horcruxes, the magical items responsible for his immortality. But as the mystical Deathly Hallows are uncovered, and Voldemort finds out about their mission, the biggest battle begins and life as they know it will never be the same again.
Sign in | Create a new account

Files

Torrent nameSize
video Harry.Potter.And.The.Deathly.Hallows.2.2011.BDRip.XVID.AC3.HQ.Hive-CM8.avi1.99 GB
nfo Harry.Potter.And.The.Deathly.Hallows.2.2011.BDRip.XVID.AC3.HQ.Hive-CM8.nfo5.05 KB
text Read this before playing this Video .txt192 Byte
video sample.avi8.77 MB
text subs for pinkdoll _D/Harry.Potter.And.The.Deathly.Hallows.2.2011.BDRip.XVID.AC3.HQ.Hive-CM8.srt65.13 KB
text torrent downloaded from www.scenetime.com.txt192 Byte

Trackers

TrackerSeedsPeers
http://tracker.thepiratebay.org/announce 2 years ago00

Share this torrent

Related Torrents

Yesterday | comments | verified Torrent nameAgeSizeSeedsPeersHealth
verifiedAdd to Facebook1 commentsHarry.Potter.And.The.Deathly.Hallows.2.2011.BDRip.XVID.AC3.HQ.Hi2 years2 GB122 29 Health
Add to FacebookHarry.Potter.And.The.Deathly.Hallows.2.2011.BDRip.XVID.AC3.HQ.Hi2 years2 GB132 40 Health
Add to FacebookHarry Potter And The Deathly Hallows 2 2011 BDRip XVID AC3 HQ Hive-CM81 year2 GB61 56 Health