Informations

Bookmark this torrent
Seeds84
Peers32
Size957.66 MB
Age2 years ago
DateWednesday 07 March 2012
Comments0
CategoryOthers > Others
Hashf94816d3d25b941057ad580c068674983eb11031
Reported Fake (0) Password (0) Bad quality (0) Virus (0) Offensive (0) Spam (0) Real Torrent (0)
Bookmark

Description

1921.Il.Mistero.Di.Rookford.2011.iTALiAN.MD.DVDRip.XviD-710

[img]http://img35.imageshack.us/img35/9003/ilmistero.png[/img]

Scheda film:

TITOLO ORIGINALE: The Awakening
USCITA CINEMA: 02/12/2011
REGIA: Nick Murphy
SCENEGGIATURA: Nick Murphy, Stephen Volk
ATTORI: Rebecca Hall, Dominic West, Imelda Staunton, Lucy Cohu, John Shrapnel, Diana Kent, Richard Durden, Alfie Field, Tilly Vosburgh, Ian Hanmore
FOTOGRAFIA: Eduard Grau
MONTAGGIO: Victoria Boydell
PRODUZIONE: Origin Pictures
DISTRIBUZIONE: Eagle Pictures
PAESE: Gran Bretagna 2011
GENERE: Horror, Thriller
DURATA: 107 Min
FORMATO: Colore 2.35 : 1
CRITICA: 1921. Il mistero di Rookford non ci colpisce dunque per il climax, ma ne apprezziamo soprattutto le atmosfere, la suggestiva fotografia e la performance di Rebecca Hall, un'attrice in grado di dare corpo e anima al personaggio di una donna in apparenza liberata, in realtà inconsapevole prigioniera di quello contro cui combatte. (Daniela Catelli)

Trama:

Nell'Inghilterra del 1921, alla fine della Prima Guerra Mondiale, Florence una donna estremamente razionale e molto scettica viene chiamata in una scuola di campagna per investigare su un inspiegabile crimine. Un ragazzo è morto e alcune foto successive del cadavere rivelano sullo sfondo una misteriosa figura sfocata. Tanti ragazzi parlano di presunte apparizioni di un fantasma nella scuola. Florence quando crede di aver confutato la teoria del fantasma, si imbatterà in una creatura soprannaturale che abbatterà tutte le sue credenze razionali.

INFO FILE :
General
Complete name : 1921.Il.Mistero.Di.Rookford.2011.iTALiAN.MD.DVDRip .XviD-710.avi
Format : AVI
Format/Info : Audio Video Interleave
File size : 958 MiB
Duration : 1h 42mn
Overall bit rate : 1 310 Kbps
Writing application : VirtualDubMod 1.5.10.2 (build 2540/release)
Writing library : VirtualDubMod build 2540/release

Video
ID : 0
Format : MPEG-4 Visual
Format profile : Advanced Simple@L5
Format settings, BVOP : No
Format settings, QPel : No
Format settings, GMC : No warppoints
Format settings, Matrix : Custom
Codec ID : XVID
Codec ID/Hint : XviD
Duration : 1h 42mn
Bit rate : 1 175 Kbps
Width : 720 pixels
Height : 304 pixels
Display aspect ratio : 2.35:1
Frame rate : 25.000 fps
Color space : YUV
Chroma subsampling : 4:2:0
Bit depth : 8 bits
Scan type : Progressive
Compression mode : Lossy
Bits/(Pixel*Frame) : 0.215
Stream size : 859 MiB (90%)
Writing library : XviD 1.2.1 (UTC 2008-12-04)

Audio
ID : 1
Format : MPEG Audio
Format version : Version 1
Format profile : Layer 3
Mode : Joint stereo
Mode extension : MS Stereo
Codec ID : 55
Codec ID/Hint : MP3
Duration : 1h 42mn
Bit rate mode : Variable
Bit rate : 122 Kbps
Nominal bit rate : 128 Kbps
Channel(s) : 2 channels
Sampling rate : 48.0 KHz
Compression mode : Lossy
Stream size : 88.8 MiB (9%)
Alignment : Aligned on interleaves
Interleave, duration : 24 ms (0.60 video frame)
Interleave, preload duration : 151 ms
Writing library : LAME3.99
Encoding settings : -m j -V 4 -q 3 -lowpass 17 --abr 128

Comments

0 Comments


Sign in | Create a new account

Files

Torrent nameSize
File not found on this server, try later..

Trackers

TrackerSeedsPeers
udp://tracker.publicbt.com:80/announce 2 years ago00
udp://tracker.openbittorrent.com:80/announce 2 years ago00

Share this torrent

4197292