Bookmark this torrent
Seeds6
Peers15
Size826.23 MB
Age2 years ago by rams
DateWednesday 11 April 2012
Comments0
CategoryMovies > Action
Hash9f77cb9f9ec5c705db09eb6b1e5edd0c91d55f56
Reported Fake (0) Password (0) Bad quality (0) Virus (0) Offensive (0) Spam (0) Real Torrent (0)
Bookmark

Description

Battleship (2012) DVDRip~ Avi

Format :AVI

Format/Info :Audio Video Interleave

Format profile :OpenDML

File size :1.30 GiB

Duration :2h 12mn

Overall bit rate :1 398 Kbps

Writers :Erich Hoeber, Jon

release Date :12 April 2012

Copyright :SIGISMUNT

http://www.imdb.com/title/tt1440129/

Video

ID :0

Format :MPEG-4 Visual

Format profile :AdvancedSimple@L5

Format settings, BVOP :Yes

Format settings, QPel :No

Format settings, GMC :No warppoints

Format settings, Matrix :Default (MPEG)

Codec ID :XVID

Codec ID/Hint :XviD

Duration :2h 12mn

Bit rate :1 009 Kbps

Width :640 pixels

Height :272 pixels

Display aspect ratio :2.35:1

Frame rate :23.976 fps

Resolution :24 bits

Colorimetry :4:2:0

Scan type :Progressive

Bits/(Pixel*Frame) :0.242

Stream size :959 MiB (72%)

Writing library :XviD 64

Audio

ID :1

Format :AC-3

Format/Info :Audio Coding 3

Codec ID :2000

Duration :2h 12mn

Bit rate mode :Constant

Bit rate :384 Kbps

Channel(s) :6 channels

Channel positions :Front: L C R, Surround: L R, LFE

Sampling rate :48.0 KHz

Stream size :365 MiB (27%)

Alignment :Aligned on interleaves

Interleave, duration :64 ms (1.53 video frames)

Interleave, preload duration :192 ms

Source :DVD (perfect a/v/sync quality,sample included,hardcoded english

subs for few original foreign parts)

A fleet of ships is forced to do battle with an armada of unknown origins in

order to discover and thwart their destructive goals.

Channel positions : Front: L C R, Surround: L R, LFE
Sampling rate : 48.0 KHz
Stream size : 365 MiB (27%)
Alignment : Aligned on interleaves
Interleave, duration : 64 ms (1.53 video frames)
Interleave, preload duration : 192 ms

Source: DVD (perfect a/v/sync quality,sample included,hardcoded english

Comments

0 Comments


Sign in | Create a new account

Files

Torrent nameSize
video Battleship (2012) DVDRip.avi811.86 MB
unknown Battleship (2012) DVDRip.info9.48 MB
video Sample.Avi2.86 MB
text Torrent downloaded from Rarbg.com.txt22 Byte
text Torrent downloaded from www.KAT.ph.txt41 Byte
image battleship1.jpg246.96 KB
image screencaps.jpeg1.79 MB

Trackers

TrackerSeedsPeers
http://www.deviloid.net:55000/announce 2 years ago00
http://tracker.prq.to/announce 2 years ago00
http://exodus.desync.com:6969/announce 2 years ago35
http://fr33dom.h33t.com:3310/announce 2 years ago310
udp://tracker.openbittorrent.com:80/announce 2 years ago00
udp://tracker.1337x.org:80/announce 2 years ago00

Share this torrent

Related Torrents

Yesterday | comments | verified Torrent nameAgeSizeSeedsPeersHealth
Add to FacebookBattleship 2012 TRUEFRENCH DVDRIP XVID-PARADIS avi1 year697.89 MB161 22 Health
Add to FacebookBattleship 2012.DVDRip XviD~AVI 2 years785.71 MB154 8 Health
Add to FacebookBattleship (2012) DVDRip.avi1 year1.31 GB136 24 Health
Add to FacebookBattleship 2012 Dvdrip Geordie76.avi2 years1.18 GB130 54 Health
Add to FacebookBATTLESHIP (2012) DVDrip avi XviD 700mb1 year699.92 MB129 6 Health
Add to FacebookBattleship.2012.DVDRip.LATiNO.XviD.Avi 2 years703.33 MB114 45 Health
Add to FacebookBattleship (2012) DVDRip XviD-MAXSPEED www.torentz.3xforum.ro.avi1 year1.31 GB102 27 Health
Add to Facebookbattleship 2012 dvdrip avi2 years1.37 GB99 49 Health
Add to FacebookBattleship 2012 DVDRip XviD-DEPRAViTY2 years766.93 MB88 9 Health
Add to FacebookBattleship (2012) DVDRip XviD-MAXSPEED www.torentz.3xforum.ro.avi1 year1.31 GB81 9 Health
4275156