The Avengers 2012 480p Brrip X264 300mb Evolution Silver Rg.torrent


Bookmark this torrent
Seeds99
Peers31
Size890.14 MB
Age2 years ago
DateMonday 23 April 2012
Comments0
CategoryMovies > Action
Hashce581c9582e54c2755294cc13ee2c80da178210f
Reported Fake (0) Password (0) Bad quality (0) Virus (0) Offensive (0) Spam (0) Real Torrent (0)
Bookmark

Description

The Avengers 2012 480p BRRip x264 300MB EvolutiOn Silver RG


Format : AVI

Format/Info : Audio Video Interleave

File size : 850 MB

Duration : 2h 7mn

Overall bit rate : 874 Kbps

Writing application : VirtualDubMod 1.5.10.2 (build 2542/release)

Writing library : VirtualDubMod build 2542/release



Video:



ID : 0

Format : MPEG-4 Visual

Format profile : Advanced Simple@L5

Format settings, BVOP : 1

Format settings, QPel : No

Format settings, GMC : No warppoints

Format settings, Matrix : Default (H.263)

Muxing mode : Packed bitstream

Codec ID : XVID

Codec ID/Hint : XviD

Duration : 2h 7mn

Bit rate : 737 Kbps

Width : 704 pixels

Height : 296 pixels

Display aspect ratio : 2.40:1

Frame rate : 23.976 fps

Color space : YUV

Chroma subsampling : 4:2:0

Bit depth : 8 bits

Scan type : Progressive

Compression mode : Lossy

Bits/(Pixel*Frame) : 0.147

Stream size : 700 MiB (84%)

Writing library : XviD 62



Audio:



ID : 1

Format : MPEG Audio

Format version : Version 1

Format profile : Layer 3

Mode : Joint stereo

Mode extension : MS Stereo

Codec ID : 55

Codec ID/Hint : MP3

Duration : 2h 7mn

Bit rate mode : Constant

Bit rate : 128 Kbps

Channel(s) : 2 channels

Sampling rate : 44.1 KHz

Compression mode : Lossy

Stream size : 82.6 MiB (15%)

Alignment : Split accross interleaves

Interleave, duration : 42 ms (1.00 video frame)

Interleave, preload duration : 500 ms

Writing library : LAME3.98.2

Comments

0 Comments


Sign in | Create a new account

Files

Torrent nameSize
nfo MPP-ETRG.nfo2.81 KB
unknown The Avengers 2012 480p BRRip x264 300MB EvolutiOn Silver RG.Trialer52.28 MB
video The Avengers 2012 480p BRRip x264 300MB EvolutiOn Silver RG.avi836.78 MB
image The Avengers.jpg313.33 KB
text Torrent downloaded from Demonoid.me.txt46 Byte
text Torrent downloaded from Extratorrent.com.txt40 Byte
text Torrent downloaded from Rarbg.com.txt33 Byte
text Torrent downloaded from h33t.com.txt32 Byte
unknown sample795.06 KB

Trackers

TrackerSeedsPeers
http://exodus.desync.com:6969/announce 2 years ago01
http://fr33dom.h33t.com:3310/announce 2 years ago04
http://red.tracker.prq.to:80/announce 2 years ago01
http://the.illusionist.tracker.prq.to:80/announce 2 years ago00
http://tpb.tracker.prq.to/announce 2 years ago03
http://red.tracker.prq.to/announce 2 years ago02
http://tracker.zond.org/announce 2 years ago00
http://tv.tracker.prq.to:80/announce.php 2 years ago03
http://tracker.publicbits.com:80/announce 2 years ago02
http://vip.tracker.prq.to:80/announce 2 years ago02
http://vtv.tv.tracker.prq.to/announce.php 2 years ago03
http://tracker.publicbt.com//announce 2 years ago02
http://www.h33t.com:3310/announce 2 years ago05
http://tracker.ilibr.org:80/announce 2 years ago00
http://exodus.desync.com:6969/announceexodus.desync.com:6969/announce 2 years ago01
http://tracker.publicbt.com/announce 2 years ago02

Share this torrent

4303763