Informations

Bookmark this torrent
Seeds67
Peers44
Size714.4 MB
Age2 years ago
DateSunday 18 November 2012
Comments0
CategoryMovies > Comedy
Hashd3b1323b754868470e6a42b34fb38bec6b78a11a
Reported Fake (0) Password (0) Bad quality (0) Virus (0) Offensive (0) Spam (0) Real Torrent (0)
Bookmark

Description

Asterix Et Obelix au service de sa majeste 2012 FRENCH DVDRiP XViD - VoMiT

[IMG]http://i.imgur.com/j9jXm.jpg[/IMG]

IMDB:

http://www.imdb.com/title/tt1597522/


Format : AVI
Format/Info : Audio Video Interleave
Format profile : OpesnDML
File size : 699 MiB
Duration : 1h 50mn
Overall bit rate : 1 052 Kbps
Writing application : VirtualDubMod 1.5.10.2 (build 2542/release)
Writing library : VirtualDubMod build 2542/release
Video
ID : 0
Format : MPEG-4 Visual
Format profile : AdvancedSimple@L5
Format settings, BVOP : Yes
Format settings, QPel : No
Format settings, GMC : No warppoints
Format settings, Matrix : Default (MPEG)
Codec ID : XVID
Codec ID/Hint : XviD
Duration : 1h 50mn
Bit rate : 942 Kbps
Width : 640 pixels
Height : 360 pixels
Display aspect ratio : 2.35:1
Frame rate : 23.976 fps
Resolution : 24 bits
Colorimetry : 4:2:0
Scan type : Progressive
Bits/(Pixel*Frame) : 0.271
Stream size : 669 MiB (78%)
Writing library : XviD 1.2.1 (UTC 2008-12-04)
Audio
ID : 1
Format : AC-3
Format/Info : Audio Coding 3
Codec ID : 2000
Duration : 1h 50mn
Bit rate mode : Constant
Bit rate : 128 Kbps
Channel(s) : 2 channels
Channel positions : Front: L R
Sampling rate : 48.0 KHz
Stream size : 30 MiB (22%)
Alignment : Aligned on interleaves
Interleave, duration : 64 ms (1.53 video frames)
Interleave, preload duration : 192 ms
Source: DVD (perfect a/v/sync quality,sample included)
This torrent is not seedbox supported,please seed it.


SCREENS:

[IMG]http://i.imgur.com/6qxvG.jpg[/IMG]
[IMG]http://i.imgur.com/6Xlrj.jpg[/IMG]
[IMG]http://i.imgur.com/8WOWQ.jpg[/IMG]

Comments

0 Comments


Sign in | Create a new account

Files

Torrent nameSize
File not found on this server, try later..

Trackers

TrackerSeedsPeers
http://tracker.torrentbox.com:2710/announce 2 years ago00
udp://tracker.torrentbox.com:2710/announce 2 years ago00
http://tracker.torrentbox.com:2710/announce 2 years ago00
http://exodus.desync.com:6969/announce 2 years ago00
http://fr33dom.h33t.com:3310/announce 2 years ago00
http://cpleft.com:2710/announce 2 years ago00
udp://tracker.openbittorrent.com:80/announce 2 years ago00
http://secure.pow7.com/announce 2 years ago00
http://tracker.thepiratebay.org/announce 2 years ago00
http://tracker.novalayer.org:6969/announce 2 years ago00
http://t1.pow7.com/announce 2 years ago00
http://inferno.demonoid.me:3409/announce 2 years ago00
http://luckybittorrent.com:2710/announce 2 years ago00
http://10.rarbg.com/announce 2 years ago00
http://pow7.com/announce 2 years ago00
http://tracker.zond.org/announce 2 years ago00
http://tracker.torrentbay.to:6969/announce 2 years ago00
http://tracker.openbittorrent.com/announce 2 years ago00

Share this torrent

Related Torrents

Yesterday | comments | verified Torrent nameAgeSizeSeedsPeersHealth
Add to FacebookAsterix Et Obelix au service de sa majeste 2012 FRENCH DVDRiP XViD - VoMiT2 years714.4 MB96 58 Health
4991686