Informations

Bookmark this torrent
Seeds140
Peers59
Size720.89 MB
Age1 year ago
DateTuesday 02 April 2013
Comments0
CategoryMovies > DVD / Film extra's
Hashf50e80e318d5ac2899b3f5fde9b11d0d93e2a267
Reported Fake (0) Password (0) Bad quality (0) Virus (0) Offensive (0) Spam (0) Real Torrent (0)
Bookmark

Description

Format : AVI
Format/Info : Audio Video Interleave
Format profile : OpenDML
Overall bit rate : 1 800 Kbps
Writing application : VirtualDubMod 1.5.10.2 (build 2542/release)
Writing library : VirtualDubMod build 2542/release

[b]Video[/b]
Format : MPEG-4 Visual
Format settings, BVOP : Yes
Format settings, QPel : No
Format settings, Matrix : Default (MPEG)
Codec ID : XVID
Codec ID/Hint : XviD
Bit rate : 1 411 Kbps
Width : 640 pixels
Height : 272 pixels
Display aspect ratio : 2.35:1
Frame rate : 23.976 fps
Resolution : 24 bits
Colorimetry : 4:2:0
Scan type : Progressive
Bits/(Pixel*Frame) : 0.338
Stream size : 1.03 GiB (78%)

[b]Audio[/b]
Format : AC-3
Format/Info : Audio Coding 3
Codec ID : 2000
Bit rate mode : Constant
Bit rate : 384 Kbps
Channel(s) : 6 channels
Channel positions : Front: L C R, Surround: L R, LFE
Sampling rate : 48.0 KHz
Stream size : 287 MiB (21%)
Alignment : Aligned on interleaves
Interleave, duration : 64 ms (1.53 video frames)
Interleave, preload duration : 192 ms

Comments

0 Comments


Sign in | Create a new account

Files

Torrent nameSize
text Dmt Nfo.txt2.18 KB
text Torrent Downloaded From downloadhindimovies.in.txt2.18 KB
text Torrent downloaded from h33t.com.txt2.18 KB
video Visible Scars.2012.DVDrip.HD.avi10 MB
image Visible Scars.2012.DVDrip.HD.jpeg1 MB
nfo Visible Scars.2012.DVDrip.HD.nfo1 MB
rar Visible Scars.2012.DVDrip.HD/Visible Scars.2012.DVDrip.HD.rar708.89 MB

Trackers

TrackerSeedsPeers
http://pirates-united.info:6969/announce 1 year ago00
http://bt.cartoonpalace.net:6969/announce 1 year ago00
http://tracker.prq.to:80/announce 1 year ago00
http://nyaatorrents.info:3277/announce 1 year ago00
http://tracker.datorrents.com:6969/announce.php 1 year ago00
http://z6gw6skubmo2pj43.tor2web.com:8080/announce 1 year ago00
http://www.h33t.com:3310/announce 1 year ago00
http://denis.stalker.h3q.com:6969/announce.php 1 year ago00
http://tracker.blazing.de:6969/announce 1 year ago00
http://tracker.publicbt.com/announce 1 year ago00
http://11.rarbg.com:80/announce 1 year ago00
http://tracker1.torrentum.pl:6969/announce.php 1 year ago00
http://exodus.desync.com:6969/announce 1 year ago00
http://tracker2.istole.it:6969/announce 1 year ago00
http://tracker.phogotorrents.com:2006/announce 1 year ago00
http://tracker.openbittorrent.com:80/announce 1 year ago00
http://tracker.prq.to:80/announce.php 1 year ago00
http://tracker.mightynova.com:4315/announce 1 year ago00
http://tpb.tracker.prq.to:80/announce.php 1 year ago00
http://tv.tracker.prq.to/announce 1 year ago00
http://colombo-bt.org:2710/announce 1 year ago00
http://tracker.prq.to/announce 1 year ago00
http://photodiode.mine.nu:6969/announce 1 year ago00
http://tracker.torrentfr.org:56666/announce 1 year ago00
http://tracker1.torrentum.pl:6969/announce 1 year ago00
http://tracker.openbittorrent.com/announce 1 year ago00
http://tracker.torrent.to:2710/announce 1 year ago00
http://91.191.138.2:80/announce 1 year ago00
http://tracker.xpear.de:6969/announce 1 year ago00
http://denis.stalker.h3q.com:6969/announce 1 year ago00
http://9.rarbg.com:2710/announce 1 year ago00
udp://tracker.thepiratebay.org:80/announce 1 year ago00
http://tracker.bitreactor.to:2710/announce 1 year ago00
http://10.rarbg.com:80/announce 1 year ago00
http://www.torrentsnipe.info:2701/announce 1 year ago00
http://bt.firebit.org:2710/announce 1 year ago00
http://tracker.novalayer.org:6969/announce 1 year ago00
udp://tracker.istole.it:80/announce 1 year ago00
http://tv.tracker.prq.to:80/announce.php 1 year ago00
http://tracker.torrent.to:2710/announce.php 1 year ago00
http://tracker.publicbt.org:80/announce 1 year ago00
http://www.psychocydd.co.uk:2710/announce 1 year ago00
udp://a2.tracker.hexagon.cc:2710/announce 1 year ago00
http://tpb.tracker.prq.to/announce 1 year ago00
http://trackhub.appspot.com/announce 1 year ago00
http://www.torrent-downloads.to:2710/announce 1 year ago00
http://secure.pow7.com/announce 1 year ago00
http://red.tracker.prq.to:80/announce 1 year ago00
http://tracker.hexagon.cc:2710/announce 1 year ago00
http://bt.edwardk.info:6969/announce 1 year ago00

Share this torrent

5615838