Bookmark this torrent
Seeds75
Peers28
Size992.01 MB
Age1 year ago
DateThursday 18 April 2013
Comments0
CategoryMovies > Action
Hashe7da29031ef3de51f1a4bfad6be537db4d7f6fe6
Reported Fake (0) Password (0) Bad quality (0) Virus (0) Offensive (0) Spam (0) Real Torrent (0)
Bookmark

Description

Format : AVI
Format/Info : Audio Video Interleave
Format profile : OpenDML
Overall bit rate : 1 800 Kbps
Writing application : VirtualDubMod 1.5.10.2 (build 2542/release)
Writing library : VirtualDubMod build 2542/release

Video

Format : MPEG-4 Visual
Format settings, BVOP : Yes
Format settings, QPel : No
Format settings, Matrix : Default (MPEG)
Codec ID : x264
Codec ID/Hint : x264
Bit rate : 1 411 Kbps
Width : 1280 pixels
Height : 720 pixels
Display aspect ratio : 16:9
Frame rate : 29.97 fps
Resolution : 24 bits
Colorimetry : 4:2:0
Scan type : Progressive
Bits/(Pixel*Frame) : 0.338
Stream size : 1.03 GiB (78%)

Audio

Format : AC-3
Format/Info : Audio Coding 3
Codec ID : 2000
Bit rate mode : Constant
Bit rate : 384 Kbps
Channel(s) : 6 channels
Channel positions : Front: L C R, Surround: L R, LFE
Sampling rate : 48.0 KHz
Stream size : 287 MiB (21%)
Alignment : Aligned on interleaves
Interleave, duration : 64 ms (1.53 video frames)
Interleave, preload duration : 192 ms

Comments

0 Comments


Sign in | Create a new account

Files

Torrent nameSize
text Dmt Nfo.txt2.14 KB
text Torrent Downloaded From downloadhindimovies.in.txt2.14 KB
video Angels.Around.Me.2013.DVDrip.HD.avi10 MB
nfo Angels.Around.Me.2013.DVDrip.HD.nfo1 MB
image Angels.Around.Me.2013.DVDrip.HD.jpeg1 MB
text Torrent downloaded from h33t.com.txt2.14 KB
rar Angels.Around.Me.2013.DVDrip.HD/Angels.Around.Me.2013.DVDrip.HD.rar980 MB

Trackers

TrackerSeedsPeers
http://cpleft.com:2710/announce 1 year ago00
http://tracker.torrentbay.to:6969/announce 1 year ago00
http://tracker.ccc.de/announce 1 year ago00
udp://tracker.ccc.de:80/announce 1 year ago00
http://tracker.publicbt.com/announce 1 year ago00
udp://tracker.publicbt.com:80/announce 1 year ago00
udp://tracker.istole.it:80/announce 1 year ago00
http://exodus.desync.com:6969/announce 1 year ago00
udp://fr33domtracker.h33t.com:3310/announce 1 year ago00
udp://tracker.openbittorrent.com:80/announce 1 year ago00
udp://tracker.publicbt.com:80/announce 1 year ago00
udp://tracker.1337x.org:80/announce 1 year ago00
http://www.h33t.com:3310/announce 1 year ago00
http://tv.tracker.prq.to:80/announce.php 1 year ago00
http://fr33dom.h33t.com:3310/announce 1 year ago00
http://www.th0r1n.com/announce 1 year ago00
http://amplicate.appspot.com/announce 1 year ago00
http://denis.stalker.h3q.com:6969/announce 1 year ago00
http://torrent-downloads.to:5869/announce 1 year ago00
http://open.tracker.thepiratebay.org/announce 1 year ago00
http://dotehwerk.appspot.com/announce 1 year ago00
http://exodus.desync.com:6969/announce 1 year ago00
http://tracker.ccc.de/announce 1 year ago00
http://announce.xxx-tracker.com:2710/announce 1 year ago00
http://cpleft.com:2710/announce 1 year ago00
http://tracker.torrentbay.to:6969/announce 1 year ago00
http://tracker.coppersurfer.tk:6969/announce 1 year ago00
http://announce.torrentsmd.com:8080/announce.php 1 year ago00
http://tracker.prq.to:80/announce.php 1 year ago00
udp://tracker.openbittorrent.com:80/announce 1 year ago00
http://secure.pow7.com/announce 1 year ago00
http://announce.torrentsmd.com:8080/announce 1 year ago00
http://announce.torrentsmd.com:8080/announce.php 1 year ago00
http://torrent-downloads.to:5869/announce 1 year ago00
http://memtracker.appspot.com/announce 1 year ago00
http://btrs-atrack.appspot.com/announce 1 year ago00
http://10.rarbg.com/announce 1 year ago00
udp://tracker.1337x.org:80/announce 1 year ago00
udp://tracker.openbittorrent.com:80/announce 1 year ago00
http://ix3.rutracker.net/announce 1 year ago00
http://bt.home-ix.ru/announce 1 year ago00
http://ipv4.tracker.harry.lu/announce 1 year ago00
http://tracker.novalayer.org:6969/announce 1 year ago00
udp://tracker.openbittorrent.com:80/announce 1 year ago00
http://tbp.tracker.prq.to:80/announce 1 year ago00
http://sombarato.org:6969/announce 1 year ago00
http://gdbt.3322.org:6969/announce 1 year ago00
udp://tracker.openbittorrent.com:80/announce 1 year ago00
http://tv.tracker.prq.to:80/announce 1 year ago00
http://cpleft.com:2710/announce 1 year ago00

Share this torrent

5693239