Informations

Bookmark this torrent
Seeds141
Peers31
Size710.48 MB
Age9 months ago
DateMonday 05 August 2013
Comments0
CategoryMovies > Action
Hashf6f3c4534846532b0047070622880a94c354d3e8
Reported Fake (0) Password (0) Bad quality (0) Virus (0) Offensive (0) Spam (0) Real Torrent (0)
Bookmark

Description

Duration : 2h 25mn
Overall bit rate : 663 Kbps
Writing library : MPlayer

Video
ID : 0
Format : MPEG-4 Visual
Format profile : Advanced Simple@L5
Format settings, BVOP : 1
Format settings, QPel : No
Format settings, GMC : No warppoints
Format settings, Matrix : Default (H.263)
Muxing mode : Packed bitstream
Codec ID : XVID
Codec ID/Hint : XviD
Duration : 2h 25mn
Bit rate : 578 Kbps
Width : 640 pixels
Height : 272 pixels
Display aspect ratio : 2.35:1
Frame rate : 25.000 fps
Color space : YUV
Chroma subsampling : 4:2:0
Bit depth : 8 bits
Scan type : Progressive
Compression mode : Lossy
Bits/(Pixel*Frame) : 0.133
Stream size : 603 MiB (87%)
Writing library : XviD 1.2.1
Audio
ID : 1
Format : MPEG Audio
Format version : Version 1
Format profile : Layer 3
Mode : Joint stereo
Mode extension : MS Stereo
Codec ID : 55
Codec ID/Hint : MP3
Duration : 2h 25mn
Bit rate mode : Constant
Bit rate : 80.0 Kbps
Channel(s) : 2 channels
Sampling rate : 32.0 KHz
Compression mode : Lossy
Stream size : 83.5 MiB (12%)
Alignment : Split accross interleaves
Interleave, duration : 500 ms (12.50 video frames)
Interleave, preload duration : 500 ms
Writing library : LAME3.99r
Encoding settings : -m j -V 4 -q 2 -lowpass 13.5 -b 80

Comments

0 Comments


Sign in | Create a new account

Files

Torrent nameSize
video The Wolverine.2013.DVDRip.XviD-PTpOWeR.wmv710.48 MB
nfo info.nfo5.09 KB

Trackers

TrackerSeedsPeers
udp://tracker.publicbt.com:80/announce 9 months ago00
udp://tracker.openbittorrent.com:80/announce 9 months ago00
http://torrentviz.dnset.com//t/announce.php 9 months ago00
udp://tracker.istole.it:80/announce 9 months ago00

Share this torrent

Related Torrents

Yesterday | comments | verified Torrent nameAgeSizeSeedsPeersHealth
Add to FacebookThe Wolverine (2013) DVDRip XviD-PTpOWeR8 months701.65 MB71 17 Health