Star Trek Into Darkness (2013) Dvdrip Xvid-max.torrent

Informations

Bookmark this torrent
Seeds145
Peers40
Size1.36 GB
Age8 months ago
DateTuesday 20 August 2013
Comments1
CategoryMovies > Sci-Fi > verified Verified
Hashebc1dcac71846a8084ab485ee85d74fa284e850e
Reported Fake (0) Password (0) Bad quality (0) Virus (0) Offensive (0) Spam (0) Real Torrent (0)
Bookmark

Comments

1 Comments


us SeedPeerMod 8 months ago (Moderator)


Screens:

http://leetleech.org/images/33353251655807331538.jpg
http://leetleech.org/images/80519149422513166031.jpg
http://leetleech.org/images/82623488677288555505.jpg

ScreenCaps:

http://leetleech.org/images/62717433008176806625.jpeg

Star Trek Into Darkness (2013) DVDRip XviD-MAX
Format : AVI
Format/Info : Audio Video Interleave
Format profile : OpenDML
Format settings : rec
File size : 1.35 GiB
Duration : 2h 12mn
Overall bit rate : 1 459 Kbps
Writing application : VirtualDubMod 1.5.10.2 (build 2542/release)
Writing library : VirtualDubMod build 2542/release
Original source form : MAX TORRENTZ
Copyright : SIGISMUNT

Video
ID : 0
Format : MPEG-4 Visual
Format profile : Advanced Simple@L5
Format settings, BVOP : 2
Format settings, QPel : No
Format settings, GMC : No warppoints
Format settings, Matrix : Default (H.263)
Muxing mode : Packed bitstream
Codec ID : XVID
Codec ID/Hint : XviD
Duration : 2h 12mn
Bit rate : 1 134 Kbps
Width : 720 pixels
Height : 304 pixels
Display aspect ratio : 2.35:1
Frame rate : 23.976 fps
Color space : YUV
Chroma subsampling : 4:2:0
Bit depth : 8 bits
Scan type : Progressive
Compression mode : Lossy
Bits/(Pixel*Frame) : 0.216
Stream size : 1.05 GiB (78%)
Writing library : XviD 64

Audio
ID : 1
Format : AC-3
Format/Info : Audio Coding 3
Mode extension : CM (complete main)
Format settings, Endianness : Big
Codec ID : 2000
Duration : 2h 12mn
Bit rate mode : Constant
Bit rate : 320 Kbps
Channel(s) : 6 channels
Channel positions : Front: L C R, Side: L R, LFE
Sampling rate : 48.0 KHz
Bit depth : 16 bits
Compression mode : Lossy
Stream size : 303 MiB (22%)
Alignment : Aligned on interleaves
Interleave, duration : 64 ms (1.54 video frames)
Interleave, preload duration : 192 ms
Sign in | Create a new account

Files

Torrent nameSize
video Star Trek Into Darkness (2013) DVDRip XviD-MAXSPEED www.torentz.3xforum.ro.avi1.35 GB
video sample.avi5.73 MB
image screencaps.jpeg608.99 KB
nfo Star Trek Into Darkness (2013) DVDRip XviD-MAXSPEED.nfo3.38 KB
text Torrent downloaded from Kickass.to.txt50 Byte
text Torrent downloaded from Extratorrent.com.txt40 Byte
text Torrent downloaded from Rarbg.com.txt33 Byte
text Torrent downloaded from h33t.com.txt32 Byte

Trackers

TrackerSeedsPeers
http://tracker.thepiratebay.org/announce 8 months ago
udp://tracker.openbittorrent.com:80 8 months ago
udp://tracker.ccc.de:80 8 months ago
udp://tracker.publicbt.com:80 8 months ago
udp://tracker.istole.it:80 8 months ago
udp://exodus.desync.com:6969 8 months ago
udp://tracker.coppersurfer.tk:6969/announce 8 months ago
udp://9.rarbg.com:2710/announce 8 months ago
http://fr33dom.h33t.com:3310/announce 8 months ago
udp://fr33dom.h33t.com:3310/announce 8 months ago
udp://11.rarbg.com:80/announce 8 months ago
udp://ipv4.tracker.harry.lu:80/announce 8 months ago
udp://12.rarbg.me:80/announce 8 months ago
udp://open.demonii.com:1337/announce 8 months ago

Share this torrent

Related Torrents

Yesterday | comments | verified Torrent nameAgeSizeSeedsPeersHealth
Add to FacebookStar Trek Into Darkness 2013 DVDRip XviD-MAX 7 months728.81 MB353 107 Health
Add to FacebookStar Trek Into Darkness (2013) DVDRip XviD-MAX4 months631.14 MB164 4 Health
Add to FacebookStar Trek Into Darkness (2013) DVDRip XviD-MAX5 months729.3 MB164 23 Health
Add to FacebookStar Trek Into Darkness (2013) DVDRip XviD-MAX4 months704.05 MB163 52 Health
Add to FacebookStar Trek Into Darkness (2013) DVDRip XviD-MAX4 months706.54 MB162 35 Health
Add to FacebookStar Trek Into Darkness (2013) DVDRip XviD-MAX5 months727.58 MB162 38 Health
Add to FacebookStar Trek Into Darkness (2013) DVDRip XviD-MAX4 months697.02 MB161 48 Health
Add to FacebookStar Trek Into Darkness 2013 DVDRip XviD-MAX 9 months728.44 MB161 25 Health
Add to FacebookStar Trek Into Darkness (2013) DVDRip XviD-MAX3 months688.49 MB160 46 Health