The Hobbit-the Desolation Of Smaug 2013 Dvdscr Xvid Ac3 Hive-cm8 Avi.torrent


Bookmark this torrent
Seeds121
Peers32
Size1.96 GB
Age7 months ago
DateThursday 02 January 2014
Comments0
CategoryMovies > Adventure
Hasha8046be6cd7e442b29ca7694e54eb98310403057
Reported Fake (0) Password (0) Bad quality (0) Virus (0) Offensive (0) Spam (0) Real Torrent (0)
Bookmark

Description

[IMG]http://img62.imageshack.us/img62/6990/r2xy.png[/IMG]

[center]The Hobbit: The Desolation of Smaug (2013)

IMDB: http://www.imdb.com/title/tt1170358/


as still nice, had security stuff upfront --> removed
video had a 3 line security msg text at the bottom, nothing we havent read before,
2 lines were in the black bar area below so they got cropped away anyway
1 line is still showin 3 times during the movie, near start,1h,2h mark. nothing fancy, besides that clear screener
Video was a bit dark and not that sharp, so i added brightness, sharpness,contrast, and enhanced colours a bit.

Resolution was 640x3something and not 720x304 when i got it, so no reason for me to upscale it, would only loose more quality

didnt go for HQ Tag, since i couldnt do it from the original disc myself,
if i do get the full disc i will do a HQ version again, but i doubt it will show up anywhere.

Audio was sweet English Stereo, nothing to do on that part

got nice and will do me till i get full disc or retail
enjoy

Video: 636x264 @bitrate 1500 2pass
Audio: English AC3 Stereo 2.0
Sample: yes included


General
Complete name : The.Hobbit-The.Desolation.of.Smaug.2013.DVDScr.XVID.AC3.Hive-CM8.avi
Format : AVI
Format/Info : Audio Video Interleave
File size : 1.94 GiB
Duration : 2h 41mn
Overall bit rate : 1 767 Kbps
Writing application : Nandub v1.0rc2
Writing library : Nandub build 1853/release

Video
ID : 0
Format : MPEG-4 Visual
Format profile : Advanced Simple@L5
Format settings, BVOP : 2
Format settings, QPel : Yes
Format settings, GMC : No warppoints
Format settings, Matrix : Default (H.263)
Muxing mode : Packed bitstream
Codec ID : XVID
Codec ID/Hint : XviD
Duration : 2h 41mn
Bit rate : 1 499 Kbps
Width : 636 pixels
Height : 264 pixels
Display aspect ratio : 2.40:1
Frame rate : 29.970 fps
Color space : YUV
Chroma subsampling : 4:2:0
Bit depth : 8 bits
Scan type : Progressive
Compression mode : Lossy
Bits/(Pixel*Frame) : 0.298
Stream size : 1.69 GiB (85%)
Writing library : XviD 1.2.1 (UTC 2008-12-04)

Audio
ID : 1
Format : AC-3
Format/Info : Audio Coding 3
Mode extension : CM (complete main)
Format settings, Endianness : Big
Codec ID : 2000
Duration : 2h 41mn
Bit rate mode : Constant
Bit rate : 256 Kbps
Channel(s) : 2 channels
Channel positions : Front: L R
Sampling rate : 48.0 KHz
Bit depth : 16 bits
Compression mode : Lossy
Stream size : 295 MiB (14%)
Alignment : Split accross interleaves
Interleave, duration : 33 ms (1.00 video frame)
Interleave, preload duration : 500 ms



Plot:

The dwarves, along with Bilbo Baggins and Gandalf the Grey, continue their quest to reclaim Erebor,
their homeland, from Smaug. Bilbo Baggins is in possession of a mysterious and magical ring.


Cast:

Ian McKellen ... Gandalf
Martin Freeman ... Bilbo
Richard Armitage ... Thorin
Ken Stott ... Balin
Graham McTavish ... Dwalin
Orlando Bloom ... Legolas
Evangeline Lilly ... Tauriel
Cate Blanchett ... Galadriel



[img]http://img51.imageshack.us/img51/1326/r72f.png[/img]
[img]http://img138.imageshack.us/img138/9538/4idb.png[/img]
[img]http://img163.imageshack.us/img163/8708/1dde.png[/img]
[img]http://img853.imageshack.us/img853/5962/eux3.png[/img]
[img]http://img59.imageshack.us/img59/3891/7l0n.png[/img]
[img]http://img607.imageshack.us/img607/961/j98s.png[/img]
[img]http://img850.imageshack.us/img850/5943/u89u.png[/img]
[img]http://img849.imageshack.us/img849/3525/7slg.png[/img]
[img]http://img543.imageshack.us/img543/273/l26y.png[/img]



[video=http://www.youtube.com/watch?v=lfflhfn1W-o]

Comments

0 Comments


Sign in | Create a new account

Files

Torrent nameSize
text The.Hobbit-The.Desolation.of.Smaug.2013.DVDScr.XVID.AC3.Hive-CM8.-READ ME.txt80 Byte
unknown _____padding_file_0_if you see this file, please update to BitComet 0.85 or above____511.92 KB
video The.Hobbit-The.Desolation.of.Smaug.2013.DVDScr.XVID.AC3.Hive-CM8.avi1.94 GB
nfo The.Hobbit-The.Desolation.of.Smaug.2013.DVDScr.XVID.AC3.Hive-CM8.nfo5.06 KB
unknown _____padding_file_1_if you see this file, please update to BitComet 0.85 or above____506.94 KB
video sample.avi11.91 MB

Trackers

TrackerSeedsPeers
http://94.228.192.98.nyud.net/announce 7 months ago00
http://calu-atrack.appspot.com.nyud.net/announce 7 months ago00
http://bigfoot1942.sektori.org:6969/announce 7 months ago00
http://121.14.98.151:9090/announce 7 months ago00
http://announce.xxx- tracker.com:2710/announce 7 months ago00
http://94.228.210.41:2710/announce 7 months ago00
udp://tracker.publicbt.com:80/announce 7 months ago00
http://tracker.blazing.de/announce 7 months ago00
http://tracker.yify-torrents.com/announce 7 months ago00
udp://tracker.prq.to/announce 7 months ago00
udp://tracker.yify-torrents.com:80/announce 7 months ago00
udp://tracker.istole.it:80/announce 7 months ago00
udp://11.rarbg.com/announce 7 months ago00
http://bt.careland.com.cn:6969/announce 7 months ago00
http://fr33dom.h33t.com:3310/announce 7 months ago00
http://bt.poletracker.org:2710/announce 7 months ago00
http://tracker.coppersurfer.tk:6969/announce 7 months ago00
http://tracker.torrent.to:2710/announce 7 months ago00
http://tracker.marshyonline.net/announce 7 months ago00
http://calu-atrack.appspot.com/announce 7 months ago00
http://exodus.desync.com/announce 7 months ago00
http://announce.torrentsmd.com:8080/announce 7 months ago00
http://bt.home-ix.ru/announce 7 months ago00
http://greenlietracker.appspot.com/announce 7 months ago00
http://94.228.192.98/announce 7 months ago00
http://announce.opensharing.org:2710/announce 7 months ago00
http://bigtorrent.org:2710/announce 7 months ago00
http://announce.torrentsmd.com:6969/announce 7 months ago00
http://coppersurfer.tk:6969/announce 7 months ago00
http://bttrack.9you.com/announce 7 months ago00
http://bt.home-ix.ru.nyud.net/announce.php 7 months ago00
http://7ece.co.uk:6969/announce 7 months ago00
http://i.bandito.org/announce 7 months ago00
http://tracker.tfile.me/announce 7 months ago00
http://bt.home-ix.ru/announce.php 7 months ago00
http://www.h33t.com:3310/announce 7 months ago00
http://bt.home-ix.ru.nyud.net/announce 7 months ago00
http://umunu.com:1984/announce 7 months ago00
http://tracker.zone42.ca:6969/announce 7 months ago00
http://p2p.lineage.com.cn:6969/announce 7 months ago00
http://tracker.packy.se:2710/announce 7 months ago00
http://eztv.tracker.prq.to/announce 7 months ago00
http://inferno.demonoid.me:3416/announce 7 months ago00
http://tunes-unlimited.net:2710/announce 7 months ago00
http://tracker.ilibr.org/announce 7 months ago00
http://tracker.anime-miako.to:6969/announce 7 months ago00
http://tracker.publicbits.com/announce 7 months ago00
http://inferno.demonoid.me:3389/announce 7 months ago00
http://tracker.deadfrog.us:42426/announce 7 months ago00
http://dttracker.debian.net:6969/announce 7 months ago00

Share this torrent

7070695